Piper.2016.1080p.BluRay.x264-FLAME[PRiME]

  • Category Movies
  • Type Divx/Xvid
  • Language English
  • Total size 583.8 MB
  • Uploaded By showstopper
  • Downloads 2919
  • Last checked 1 week ago
  • Date uploaded 2 weeks ago
  • Seeders 105
  • Leechers 57

Piper

Animation

The short centers on a young sandpiper, the eponymous Piper, who is afraid of the water. She meets a young hermit crab who "teaches her the way of the waves".

Infohash : B47A8095B36C8DB8A1F6580850D9B892046F3BC5


Piper.2016.1080p.BluRay.x264-FLAME[PRiME]

ImDb: http://www.imdb.com/title/tt5613056



Complete name : flame-piper.2016.1080p.bluray.x264[PRiME].mkv
Format : Matroska
Format version : Version 4 / Version 2
File size : 497 MiB
Duration : 6 min 5 s
Overall bit rate : 11.4 Mb/s
Encoded date : UTC 2016-11-25 22:50:20
Writing application : mkvmerge v9.4.2 ('So High') 64bit
Writing library : libebml v1.3.4 + libmatroska v1.4.5

Video
ID : 1
Format : AVC
Format/Info : Advanced Video Codec
Format profile : [email protected]
Format settings, CABAC : Yes
Format settings, ReFrames : 4 frames
Codec ID : V_MPEG4/ISO/AVC
Duration : 6 min 5 s
Bit rate : 9 930 kb/s
Width : 1 920 pixels
Height : 1 080 pixels
Display aspect ratio : 16:9
Frame rate mode : Constant
Frame rate : 23.976 (24000/1001) FPS
Color space : YUV
Chroma subsampling : 4:2:0
Bit depth : 8 bits
Scan type : Progressive
Bits/(Pixel*Frame) : 0.200
Stream size : 431 MiB (87%)
Writing library : x264 core 148 r2721 72d53ab
Encoding settings : cabac=1 / ref=4 / deblock=1:2:1 / analyse=0x3:0x133 / me=umh / subme=9 / psy=1 / psy_rd=0.50:0.00 / mixed_ref=1 / me_range=16 / chroma_me=1 / trellis=2 / 8x8dct=1 / cqm=0 / deadzone=21,11 / fast_pskip=0 / chroma_qp_offset=-2 / threads=12 / lookahead_threads=1 / sliced_threads=0 / nr=0 / decimate=1 / interlaced=0 / bluray_compat=0 / constrained_intra=0 / bframes=3 / b_pyramid=2 / b_adapt=2 / b_bias=0 / direct=3 / weightb=1 / open_gop=0 / weightp=2 / keyint=250 / keyint_min=23 / scenecut=40 / intra_refresh=0 / rc_lookahead=60 / rc=2pass / mbtree=1 / bitrate=9930 / ratetol=1.0 / qcomp=0.60 / qpmin=10 / qpmax=69 / qpstep=4 / cplxblur=20.0 / qblur=0.5 / ip_ratio=1.40 / aq=1:0.70
Language : English
Default : Yes
Forced : No

Audio
ID : 2
Format : DTS
Format/Info : Digital Theater Systems
Mode : 16
Format settings, Endianness : Big
Codec ID : A_DTS
Duration : 6 min 5 s
Bit rate mode : Constant
Bit rate : 1 509 kb/s
Channel(s) : 6 channels
Channel positions : Front: L C R, Side: L R, LFE
Sampling rate : 48.0 kHz
Frame rate : 93.750 FPS (512 spf)
Bit depth : 24 bits
Compression mode : Lossy
Stream size : 65.8 MiB (13%)
Title : English DTS 1509 kbps
Language : English
Default : Yes
Forced : No

Text #1
ID : 3
Format : UTF-8
Codec ID : S_TEXT/UTF8
Codec ID/Info : UTF-8 Plain Text
Duration : 5 min 36 s
Bit rate : 5 b/s
Count of elements : 20
Stream size : 220 Bytes (0%)
Title : English SDH
Language : English
Default : No
Forced : No

Text #2
ID : 4
Format : UTF-8
Codec ID : S_TEXT/UTF8
Codec ID/Info : UTF-8 Plain Text
Duration : 2 s 429 ms
Bit rate : 23 b/s
Count of elements : 1
Stream size : 7.00 Bytes (0%)
Title : Polish
Language : Polish
Default : No
Forced : No

Menu
00:00:00.000 : :
00:01:34.843 : :
00:02:10.337 : :
00:04:02.032 : :
00:05:16.064 : :
00:06:05.447 : :




Click Image To View Full Size


Click To View Screenshot
Click To View Screenshot
Click To View Screenshot

Files:

Piper.2016.1080p.BluRay.x264-FLAME[PRiME]
  • Please Support!! Read More!!!.txt (0.2 KB)
  • Sample
    • flame-piper.2016.1080p.bluray.x264-sample[PRiME].mkv (86.9 MB)
  • Torrent Downloaded From 1337x.to.txt (0.1 KB)
  • Torrent Downloaded From ExtraTorrent.cc.txt (0.4 KB)
  • Torrent downloaded from AhaShare.com.txt (0.1 KB)
  • flame-piper.2016.1080p.bluray.x264.jpg (3.9 KB)
  • flame-piper.2016.1080p.bluray.x264[PRiME].mkv (496.9 MB)

There are currently no comments. Feel free to leave one :)

Code:

  • udp://tracker.ilibr.org:6969/announce
  • udp://tracker.coppersurfer.tk:6969
  • udp://tracker.ilibr.org:80/announce
  • udp://tracker.coppersurfer.tk:6969/announce
  • udp://tracker.leechers-paradise.org:6969/announce
  • udp://tracker.opentrackr.org:1337/announce
  • udp://tracker.zer0day.to:1337/announce
  • udp://ipv4.tracker.harry.lu:80/announce
  • udp://p4p.arenabg.ch:1337/announce
  • udp://p4p.arenabg.com:1337/announce
  • udp://9.rarbg.com:2710/announce
  • udp://9.rarbg.to:2710/announce
  • udp://9.rarbg.me:2710/announce
  • udp://explodie.org:6969/announce
  • udp://eddie4.nl:6969/announce
proxy download |proxyadder |proxybeing.com |proxyblank |