Ben Hur 2016 BRRip x264 AC3 TiTAN

  • Category Movies
  • Type DVD
  • Language English
  • Total size 1.6 GB
  • Uploaded By mazemaze16
  • Downloads 112
  • Last checked 4 days ago
  • Date uploaded 1 week ago
  • Seeders 48
  • Leechers 10

Infohash : E8425EAE793B55EC5ECBED6C0044CE6F88B71F33

Ben Hur 2016 BRRip x264 AC3 TiTAN




Format : AVC
Format/Info : Advanced Video Codec
Format profile : [email protected]
Format settings, CABAC : Yes
Format settings, ReFrames : 3 frames
Codec ID : V_MPEG4/ISO/AVC
Duration : 2 h 4 min
Bit rate mode : Variable
Bit rate : 1 445 kb/s
Maximum bit rate : 14.0 Mb/s
Width : 720 pixels
Height : 304 pixels
Display aspect ratio : 2.35:1
Frame rate mode : Constant
Frame rate : 23.976 (24000/1001) FPS
Color space : YUV
Chroma subsampling : 4:2:0
Bit depth : 8 bits
Scan type : Progressive
Bits/(Pixel*Frame) : 0.275
Stream size : 1.26 GiB (79%)
Writing library : x264 core 148 r2638 7599210
Default : Yes
Forced : No
Color range : Full
Color primaries : BT.709
Transfer characteristics : BT.709
Matrix coefficients : BT.709

Audio
ID : 2
Format : AC-3
Format/Info : Audio Coding 3
Mode extension : CM (complete main)
Format settings, Endianness : Big
Codec ID : A_AC3
Duration : 2 h 4 min
Bit rate mode : Constant
Bit rate : 384 kb/s
Channel(s) : 6 channels
Channel positions : Front: L C R, Side: L R, LFE
Sampling rate : 48.0 kHz
Frame rate : 31.250 FPS (1536 spf)
Compression mode : Lossy
Stream size : 343 MiB (21%)
Language : English
Default : Yes
Forced : No

Screens:

Files:

Ben Hur 2016 BRRip x264 AC3 TiTAN
  • Ben Hur 2016 BRRip x264 AC3 TiTAN.mkv (1.6 GB)
  • Ben Hur 2016 BRRip x264 AC3 TiTAN.nfo (2.5 KB)

There are currently no comments. Feel free to leave one :)

Code:

  • udp://tracker.ilibr.org:6969/announce
  • udp://tracker.coppersurfer.tk:6969
  • udp://tracker.coppersurfer.tk:6969/announce
  • udp://tracker.ilibr.org:80/announce
  • udp://tracker.opentrackr.org:1337/announce
  • udp://tracker.zer0day.to:1337/announce
  • udp://p4p.arenabg.ch:1337/announce
  • udp://p4p.arenabg.com:1337/announce
  • udp://explodie.org:6969/announce
  • udp://ipv4.tracker.harry.lu:80/announce
  • udp://eddie4.nl:6969/announce
  • udp://tracker.leechers-paradise.org:6969/announce
  • udp://9.rarbg.to:2710/announce
  • udp://9.rarbg.com:2710/announce
  • udp://9.rarbg.me:2710/announce
proxy download |proxyadder |proxybeing.com |proxyblank |